EXPRESSHARE.COM Online Sharing Community
Free Download Free Movies Free Music Free TV Shows

Go Back   EXPRESSHARE.COM Online Sharing Community > ExpresShare.com > Free Downloads

Free Downloads Free Movies, PC Games, Software, Music and much more!!


Post New Thread  Reply
Old 03-03-11, 08:48 AM   #1 (permalink)
Experienced
 
nobleman's Avatar
 
Join Date: Oct 2010
Location: Malaysia
Posts: 221
Thanks: 296
Thanked 144 Times in 84 Posts
Rep Power: 19
nobleman has a spectacular aura aboutnobleman has a spectacular aura about
Activity Longevity
0/20 16/20
Today Posts
ssssss221
Free Movie Elephant White (2011)

Elephant White (2011)
| WP.XviD | 700MB |




Download:
http://www.imdb.com/title/tt1578882/

Quote:
An assassin is hired by a businessman to avenge the murder of his daughter by white slave traders in Thailand.
Quote:
Format : AVI
Format/Info : Audio Video Interleave
File size : 705 MiB
Duration : 1h 31mn
Overall bit rate : 1 078 Kbps
Writing application : VirtualDubMod 1.5.10.2 (build 2540/release)
Writing library : VirtualDub build 32842/release

Video
ID : 0
Format : MPEG-4 Visual
Format profile : Advanced Simple@L5
Format settings, BVOP : 2
Format settings, QPel : No
Format settings, GMC : No warppoints
Format settings, Matrix : Default (H.263)
Muxing mode : Packed bitstream
Codec ID : XVID
Codec ID/Hint : XviD
Duration : 1h 31mn
Bit rate : 941 Kbps
Width : 720 pixels
Height : 304 pixels
Display aspect ratio : 2.35:1
Frame rate : 23.976 fps
Color space : YUV
Chroma subsampling : 4:2:0
Bit depth : 8 bits
Scan type : Progressive
Compression mode : Lossy
Bits/(Pixel*Frame) : 0.179
Stream size : 615 MiB (87%)
Writing library : XviD 58

Audio
ID : 1
Format : MPEG Audio
Format version : Version 1
Format profile : Layer 3
Mode : Joint stereo
Mode extension : MS Stereo
Codec ID : 55
Codec ID/Hint : MP3
Duration : 1h 31mn
Bit rate mode : Constant
Bit rate : 128 Kbps
Channel(s) : 2 channels
Sampling rate : 48.0 KHz
Compression mode : Lossy
Stream size : 83.7 MiB (12%)
Alignment : Split accross interleaves
Interleave, duration : 42 ms (1.00 video frame)
Interleave, preload duration : 500 ms












Download:
http://rapidshare.com/files/450710826/elephant_2011_wp.part1.rar
http://rapidshare.com/files/450710844/elephant_2011_wp.part2.rar

Download:
http://www.fileserve.com/file/4m6YJha/elephant_2011_wp.rar

Download:
http://hotfile.com/dl/108446967/cef5db8/elephant_2011_wp.part1.rar.html
http://hotfile.com/dl/108446977/9815023/elephant_2011_wp.part2.rar.html

Download:
http://www.duckload.com/download/3381771/elephant_2011_wp.rar

Download:
http://freakshare.com/files/koc3a1yq/elephant_2011_wp.rar.html

Download:
http://bitshare.com/files/2k9is0io/elephant_2011_wp.rar.html

Download:
http://oron.com/wkj0br6ckdv3/elephant_2011_wp.rar.html

Download:
http://www.filesonic.com/file/148761691/elephant_2011_wp.rar

Download:
http://depositfiles.com/files/vh3tb6vld

Download:
http://filehook.com/h9vwt89ah2jv/elephant_2011_wp.rar.html

Download:
http://x7.to/507wfz

Download:
http://www.easy-share.com/1914073895/elephant_2011_wp.rar
__________________


Last edited by nobleman; 04-03-11 at 08:20 AM.
nobleman is offline   Reply With Quote
Reply

Bookmarks

Thread Tools Search this Thread
Search this Thread:

Advanced Search
Display Modes Rate This Thread
Rate This Thread:

Posting Rules
You may not post new threads
You may not post replies
You may not post attachments
You may not edit your posts

BB code is On
Smilies are On
[IMG] code is On
HTML code is Off
Trackbacks are On
Pingbacks are On
Refbacks are On


Similar Threads
Thread Thread Starter Forum Replies Last Post
FREE DOWNLOAD Elephant White (2011) DVDRip scorpio07 Free Downloads 0 02-05-11 10:23 PM
FREE DOWNLOAD Elephant White (2011) DVDRip Yazdan Free Downloads 0 01-05-11 06:58 AM
FREE DOWNLOAD Elephant White (2011) sumitims Free Downloads 0 27-02-11 07:30 PM


All times are GMT +1. The time now is 08:47 PM.


Powered by: vBulletin
Copyright ©2000 - 2014, Jelsoft Enterprises Ltd.
Search Engine Optimization by vBSEO
ExpresShare Facebook Page RealDebrid Knownsrv TutFREAK ReleaseKING bl.st
EXPRESSHARE.COM©2014 
Free Downloads Download Games Download Movies Download HD Movies

Disclaimer: None of the files shown here are actually hosted on this server. The links are provided solely by this site's users. These files are meant for the distribution of backup files. By downloading any of these files, you are claiming that you own the original file. The Administrator of this site (http://expresshare.com) holds NO RESPONSIBILITY if these files are misused in any way and cannot be held responsible for what its users post, or any other actions of its users.. For controversial reasons, if you are affiliated with any government, ANTI-Piracy group or any other related group, or were formally a worker of one you CANNOT download any of these files. If you download these files you are not agreeing to these terms and you are violating code 431.322.12 of the Internet Privacy Act signed by Bill Clinton in 1995 and that means that you CANNOT threaten our ISP(s) or any person(s) or company storing these files, and cannot prosecute any person(s) affiliated with this page which includes family, friends or individuals who run or enter this web site. If you do not agree to these terms, please do not use this service or you will face consequences. You may not use this site to distribute or download any material when you do not have the legal rights to do so. It is your own responsibility to adhere to these terms. Child Exploitation are absolutely forbidden! All users who have dealings with any Child Exploitation will be reported to "CyberTipline".


For any problems please report to www.expresshare.com
If you find any information that is in violation to a privacy law please report to www.expresshare.com

WWW.EXPRESSHARE.COM